Скачать торрентом фантастические твари и где они обитают


Скачать торрент Фантастические твари и где они обитают / Fantastic Beasts and Where to Find Them (2016) BDRip 1080p от NNNB

Информация о фильме
    Русское название: Фантастические твари и где они обитаютОригинальное название: Fantastic Beasts and Where to Find ThemГод выхода: 2016Жанр: фэнтези, приключения, семейныйРежиссер: Дэвид ЙейтсВыпущено: Великобритания, СШАПродолжительность: 02:12:52Перевод: ДублированныйВ ролях: Эдди Редмэйн, Кэтрин Уотерстон, Дэн Фоглер, Элисон Судол, Колин Фаррелл, Кармен Эджого, Эзра Миллер, Саманта Мортон, Рон Перлман, Джон Войт
Сюжет фильма
    Поиск и изучение необычайных волшебных существ приводят магозоолога Ньюта Саламандера в Нью-Йорк. Скорее всего, он отбыл бы на поезде дальше, если бы не не маг (так в Америке называют магглов) по имени Якоб, оставленный в неположенном месте магический чемодан и побег из него фантастических животных Ньюта.
Файл
    Качество: BDRip 1080p \(исходник Blu-Ray Disc\)Формат: MKVВидео: 1920x800, 7462 Кбит/сек, 23,976 кадр/сек, AVC, x264, [email protected], 2.40:1, 0.203 Бит/[Пиксели*Кадры]Аудио 1: AC-3, 448 Кбит/сек, 6 канала(ов), 48,0 КГц - Дублированный / РусскийАудио 2: AC-3, 448 Кбит/сек, 6 канала(ов), 48,0 КГц - Оригинал / АнглийскийСубтитры: Русские | Полные, Английские | ПолныеФорсированные субтитры: РусскиеЧаптеры (Главы): Есть

Автор Рипа: Группа:

MediaInfo

Format : Matroska Format version : Version 2 File size : 7.72 GiB Duration : 2 h 12 min Overall bit rate : 8 314 kb/s Movie name : Fantastic Beasts and Where to Find Them.(2016).BDRip.1080p.[envy] Encoded date : UTC 2017-02-26 07:21:41 Writing application : mkvmerge v5.8.0 ('No Sleep / Pillow') built on Sep 2 2012 15:37:04 Writing library : libebml v1.2.3 + libmatroska v1.3.0

Video ID : 1 Format : AVC Format/Info : Advanced Video Codec Format profile : [email protected] Format settings, CABAC : Yes Format settings, ReFrames : 5 frames Codec ID : V_MPEG4/ISO/AVC Duration : 2 h 12 min Bit rate : 7 462 kb/s Width : 1 920 pixels Height : 800 pixels Display aspect ratio : 2.40:1 Frame rate mode : Constant Frame rate : 23.976 (24000/1001) FPS Color space : YUV Chroma subsampling : 4:2:0 Bit depth : 8 bits Scan type : Progressive Bits/(Pixel*Frame) : 0.203 Stream size : 6.73 GiB (87%) Title : Fantastic Beasts and Where to Find Them.(2016).BDRip.1080p.[envy] Writing library : x264 core 148 r2744 b97ae06 Encoding settings : cabac=1 / ref=5 / deblock=1:-3:-3 / analyse=0x3:0x133 / me=umh / subme=11 / psy=1 / psy_rd=1.00:0.07 / mixed_ref=1 / me_range=32 / chroma_me=1 / trellis=2 / 8x8dct=1 / cqm=0 / deadzone=21,11 / fast_pskip=0 / chroma_qp_offset=-3 / threads=12 / lookahead_threads=1 / sliced_threads=0 / nr=0 / decimate=1 / interlaced=0 / bluray_compat=0 / constrained_intra=0 / bframes=5 / b_pyramid=2 / b_adapt=2 / b_bias=0 / direct=3 / weightb=1 / open_gop=0 / weightp=2 / keyint=240 / keyint_min=23 / scenecut=40 / intra_refresh=0 / rc=2pass / mbtree=0 / bitrate=7462 / ratetol=2.0 / qcomp=0.60 / qpmin=0 / qpmax=69 / qpstep=4 / cplxblur=20.0 / qblur=0.5 / ip_ratio=1.40 / pb_ratio=1.30 / aq=1:0.70 Language : English Default : Yes Forced : No

Audio #1 ID : 2 Format : AC-3 Format/Info : Audio Coding 3 Mode extension : CM (complete main) Format settings, Endianness : Big Codec ID : A_AC3 Duration : 2 h 12 min Bit rate mode : Constant Bit rate : 448 kb/s Channel(s) : 6 channels Channel positions : Front: L C R, Side: L R, LFE Sampling rate : 48.0 kHz Frame rate : 31.250 FPS (1536 spf) Compression mode : Lossy Stream size : 426 MiB (5%) Title : Dub Language : Russian Default : Yes Forced : No

Audio #2 ID : 3 Format : AC-3 Format/Info : Audio Coding 3 Mode extension : CM (complete main) Format settings, Endianness : Big Codec ID : A_AC3 Duration : 2 h 12 min Bit rate mode : Constant Bit rate : 448 kb/s Channel(s) : 6 channels Channel positions : Front: L C R, Side: L R, LFE Sampling rate : 48.0 kHz Frame rate : 31.250 FPS (1536 spf) Compression mode : Lossy Stream size : 426 MiB (5%) Title : Eng Language : English Default : No Forced : No

Text #1 ID : 4 Format : UTF-8 Codec ID : S_TEXT/UTF8 Codec ID/Info : UTF-8 Plain Text Title : Rus forced Language : Russian Default : Yes Forced : Yes

Text #2 ID : 5 Format : UTF-8 Codec ID : S_TEXT/UTF8 Codec ID/Info : UTF-8 Plain Text Title : Rus full Language : Russian Default : No Forced : No

Text #3 ID : 6 Format : UTF-8 Codec ID : S_TEXT/UTF8 Codec ID/Info : UTF-8 Plain Text Title : Eng full Language : English Default : No Forced : No

Menu 00:00:00.000 : :Chapter 01 00:08:40.269 : :Chapter 02 00:18:55.717 : :Chapter 03 00:28:23.660 : :Chapter 04 00:38:34.186 : :Chapter 05 00:48:08.594 : :Chapter 06 00:58:19.245 : :Chapter 07 01:09:14.692 : :Chapter 08 01:17:26.391 : :Chapter 09 01:29:33.659 : :Chapter 10 01:38:02.084 : :Chapter 11 01:50:27.871 : :Chapter 12 01:59:04.470 : :Chapter 13 02:04:11.944 : :Chapter 14

mrutor.org

Скачать торрент Фантастические твари и где они обитают / Fantastic Beasts and Where to Find Them (2016) BDRip 1080p от NNNB

Информация о фильме
    Русское название: Фантастические твари и где они обитаютОригинальное название: Fantastic Beasts and Where to Find ThemГод выхода: 2016Жанр: фэнтези, приключения, семейныйРежиссер: Дэвид ЙейтсВыпущено: Великобритания, СШАПродолжительность: 02:12:52Перевод: ДублированныйВ ролях: Эдди Редмэйн, Кэтрин Уотерстон, Дэн Фоглер, Элисон Судол, Колин Фаррелл, Кармен Эджого, Эзра Миллер, Саманта Мортон, Рон Перлман, Джон Войт
Сюжет фильма
    Поиск и изучение необычайных волшебных существ приводят магозоолога Ньюта Саламандера в Нью-Йорк. Скорее всего, он отбыл бы на поезде дальше, если бы не не маг (так в Америке называют магглов) по имени Якоб, оставленный в неположенном месте магический чемодан и побег из него фантастических животных Ньюта.
Файл
    Качество: BDRip 1080p \(исходник Blu-Ray Disc\)Формат: MKVВидео: 1920x800, 7462 Кбит/сек, 23,976 кадр/сек, AVC, x264, [email protected], 2.40:1, 0.203 Бит/[Пиксели*Кадры]Аудио 1: AC-3, 448 Кбит/сек, 6 канала(ов), 48,0 КГц - Дублированный / РусскийАудио 2: AC-3, 448 Кбит/сек, 6 канала(ов), 48,0 КГц - Оригинал / АнглийскийСубтитры: Русские | Полные, Английские | ПолныеФорсированные субтитры: РусскиеЧаптеры (Главы): Есть

Автор Рипа: Группа:

MediaInfo

Format : Matroska Format version : Version 2 File size : 7.72 GiB Duration : 2 h 12 min Overall bit rate : 8 314 kb/s Movie name : Fantastic Beasts and Where to Find Them.(2016).BDRip.1080p.[envy] Encoded date : UTC 2017-02-26 07:21:41 Writing application : mkvmerge v5.8.0 ('No Sleep / Pillow') built on Sep 2 2012 15:37:04 Writing library : libebml v1.2.3 + libmatroska v1.3.0

Video ID : 1 Format : AVC Format/Info : Advanced Video Codec Format profile : [email protected] Format settings, CABAC : Yes Format settings, ReFrames : 5 frames Codec ID : V_MPEG4/ISO/AVC Duration : 2 h 12 min Bit rate : 7 462 kb/s Width : 1 920 pixels Height : 800 pixels Display aspect ratio : 2.40:1 Frame rate mode : Constant Frame rate : 23.976 (24000/1001) FPS Color space : YUV Chroma subsampling : 4:2:0 Bit depth : 8 bits Scan type : Progressive Bits/(Pixel*Frame) : 0.203 Stream size : 6.73 GiB (87%) Title : Fantastic Beasts and Where to Find Them.(2016).BDRip.1080p.[envy] Writing library : x264 core 148 r2744 b97ae06 Encoding settings : cabac=1 / ref=5 / deblock=1:-3:-3 / analyse=0x3:0x133 / me=umh / subme=11 / psy=1 / psy_rd=1.00:0.07 / mixed_ref=1 / me_range=32 / chroma_me=1 / trellis=2 / 8x8dct=1 / cqm=0 / deadzone=21,11 / fast_pskip=0 / chroma_qp_offset=-3 / threads=12 / lookahead_threads=1 / sliced_threads=0 / nr=0 / decimate=1 / interlaced=0 / bluray_compat=0 / constrained_intra=0 / bframes=5 / b_pyramid=2 / b_adapt=2 / b_bias=0 / direct=3 / weightb=1 / open_gop=0 / weightp=2 / keyint=240 / keyint_min=23 / scenecut=40 / intra_refresh=0 / rc=2pass / mbtree=0 / bitrate=7462 / ratetol=2.0 / qcomp=0.60 / qpmin=0 / qpmax=69 / qpstep=4 / cplxblur=20.0 / qblur=0.5 / ip_ratio=1.40 / pb_ratio=1.30 / aq=1:0.70 Language : English Default : Yes Forced : No

Audio #1 ID : 2 Format : AC-3 Format/Info : Audio Coding 3 Mode extension : CM (complete main) Format settings, Endianness : Big Codec ID : A_AC3 Duration : 2 h 12 min Bit rate mode : Constant Bit rate : 448 kb/s Channel(s) : 6 channels Channel positions : Front: L C R, Side: L R, LFE Sampling rate : 48.0 kHz Frame rate : 31.250 FPS (1536 spf) Compression mode : Lossy Stream size : 426 MiB (5%) Title : Dub Language : Russian Default : Yes Forced : No

Audio #2 ID : 3 Format : AC-3 Format/Info : Audio Coding 3 Mode extension : CM (complete main) Format settings, Endianness : Big Codec ID : A_AC3 Duration : 2 h 12 min Bit rate mode : Constant Bit rate : 448 kb/s Channel(s) : 6 channels Channel positions : Front: L C R, Side: L R, LFE Sampling rate : 48.0 kHz Frame rate : 31.250 FPS (1536 spf) Compression mode : Lossy Stream size : 426 MiB (5%) Title : Eng Language : English Default : No Forced : No

Text #1 ID : 4 Format : UTF-8 Codec ID : S_TEXT/UTF8 Codec ID/Info : UTF-8 Plain Text Title : Rus forced Language : Russian Default : Yes Forced : Yes

Text #2 ID : 5 Format : UTF-8 Codec ID : S_TEXT/UTF8 Codec ID/Info : UTF-8 Plain Text Title : Rus full Language : Russian Default : No Forced : No

Text #3 ID : 6 Format : UTF-8 Codec ID : S_TEXT/UTF8 Codec ID/Info : UTF-8 Plain Text Title : Eng full Language : English Default : No Forced : No

Menu 00:00:00.000 : :Chapter 01 00:08:40.269 : :Chapter 02 00:18:55.717 : :Chapter 03 00:28:23.660 : :Chapter 04 00:38:34.186 : :Chapter 05 00:48:08.594 : :Chapter 06 00:58:19.245 : :Chapter 07 01:09:14.692 : :Chapter 08 01:17:26.391 : :Chapter 09 01:29:33.659 : :Chapter 10 01:38:02.084 : :Chapter 11 01:50:27.871 : :Chapter 12 01:59:04.470 : :Chapter 13 02:04:11.944 : :Chapter 14

krutor.org

Скачать торрент Фантастические твари и где они обитают / Fantastic Beasts and Where to Find Them (2016) BDRip 720p от Scarabey

Мы "В КОНТАКТЕ" =)

Год выпуска: 2016Страна: Великобритания, СШАЖанр: фэнтези, приключения, семейныйПродолжительность: 02:12:52Перевод: Профессиональный (полное дублирование) [Лицензия]Cубтитры: русские (форсированные)

Режиссер: Дэвид Йейтс / David Yates

В ролях: Эдди Редмэйн, Кэтрин Уотерстон, Дэн Фоглер, Элисон Судол, Колин Фаррелл, Кармен Эджого, Эзра Миллер, Саманта Мортон, Рон Перлман, Джон Войт

Описание: Поиск и изучение необычайных волшебных существ приводят магозоолога Ньюта Саламандера в Нью-Йорк. Скорее всего, он отбыл бы на поезде дальше, если бы не не маг (так в Америке называют магглов) по имени Якоб, оставленный в неположенном месте магический чемодан и побег из него фантастических животных Ньюта.

Качество видео: BDRip 720p (HDS)Формат видео: MKV

Видео: 1280х534, 23.976 fps, AVC ~3517 kbps avgАудио: 48 kHz, AC3 Dolby Digital, 3/2 (L,C,R,l,r) + LFE ch, ~448 kbps

Релиз от:

АНОНСЫ МОИХ РАЗДАЧ!

МедиаИнфо

Фантастические твариFantastic.Beasts.and.Where.to.Find.Them.2016.720p_BDRip_[scarabey.org].mkv Format : Matroska Format version : Version 4 / Version 2 File size : 3.75 GiB Duration : 2h 12mn Overall bit rate : 4 045 Kbps Movie name : Fantastic Beasts and Where to Find Them 2016 720p BluRay DTS x264-HDS Encoded date : UTC 2017-02-25 17:36:10 Writing application : mkvmerge v6.1.0 ('Old Devil') built on Mar 4 2013 09:10:42 Writing library : libebml v1.3.0 + libmatroska v1.4.0

Video ID : 1 Format : AVC Format/Info : Advanced Video Codec Format profile : [email protected] Format settings, CABAC : Yes Format settings, ReFrames : 12 frames Codec ID : V_MPEG4/ISO/AVC Duration : 2h 12mn Bit rate : 3 517 Kbps Width : 1 280 pixels Height : 534 pixels Display aspect ratio : 2.40:1 Frame rate mode : Constant Frame rate : 23.976 fps Color space : YUV Chroma subsampling : 4:2:0 Bit depth : 8 bits Scan type : Progressive Bits/(Pixel*Frame) : 0.215 Stream size : 3.26 GiB (87%) Title : 环环@HDSky Writing library : x264 core 148 r2699+6+41 29a38aa Yuuki [[email protected]:2:0 X86_64][GCC 5.3.0] Encoding settings : cabac=1 / ref=12 / deblock=1:-3:-3 / analyse=0x3:0x113 / me=umh / subme=11 / psy=1 / fade_compensate=0.00 / psy_rd=1.00:0.05 / mixed_ref=1 / me_range=32 / chroma_me=1 / trellis=2 / 8x8dct=1 / cqm=0 / deadzone=21,11 / fast_pskip=0 / chroma_qp_offset=-2 / threads=24 / lookahead_threads=4 / sliced_threads=0 / nr=0 / decimate=1 / interlaced=0 / bluray_compat=0 / constrained_intra=0 / fgo=0 / bframes=8 / b_pyramid=2 / b_adapt=2 / b_bias=0 / direct=3 / weightb=1 / open_gop=0 / weightp=2 / keyint=250 / keyint_min=23 / scenecut=40 / intra_refresh=0 / rc=crf / mbtree=0 / crf=17.8000 / qcomp=0.60 / qpmin=0:0:0 / qpmax=69:69:69 / qpstep=4 / ip_ratio=1.40 / pb_ratio=1.30 / aq=3:0.90 Default : Yes Forced : No

Audio ID : 2 Format : AC-3 Format/Info : Audio Coding 3 Mode extension : CM (complete main) Format settings, Endianness : Big Codec ID : A_AC3 Duration : 2h 12mn Bit rate mode : Constant Bit rate : 448 Kbps Channel(s) : 6 channels Channel positions : Front: L C R, Side: L R, LFE Sampling rate : 48.0 KHz Bit depth : 16 bits Compression mode : Lossy Stream size : 426 MiB (11%) Title : Дубляж - Лицензия Language : Russian Default : Yes Forced : No

Text ID : 3 Format : UTF-8 Codec ID : S_TEXT/UTF8 Codec ID/Info : UTF-8 Plain Text Title : русские, форсированые Language : Russian Default : Yes Forced : No

Menu 00:00:00.000 : en:00:00:00.000 00:08:40.270 : en:00:08:40.270 00:18:55.718 : en:00:18:55.718 00:28:23.660 : en:00:28:23.660 00:38:34.187 : en:00:38:34.187 00:48:08.594 : en:00:48:08.594 00:58:19.246 : en:00:58:19.246 01:09:14.692 : en:01:09:14.692 01:17:26.392 : en:01:17:26.392 01:29:33.660 : en:01:29:33.660 01:38:02.085 : en:01:38:02.085 01:50:27.871 : en:01:50:27.871 01:59:04.471 : en:01:59:04.471 02:04:11.944 : en:02:04:11.944

krutor.org

Скачать торрент Фантастические твари и где они обитают / Fantastic Beasts and Where to Find Them (2016) BDRip 720p от ExKinoRay

Информация о фильмеНазвание: Фантастические твари и где они обитаютОригинальное название: Fantastic Beasts and Where to Find ThemГод выхода: 2016Жанр: Фэнтези, приключения, семейный, экранизацияРежиссер: Дэвид ЙейтсВ ролях: Эдди Редмэйн, Кэтрин Уотерстон, Дэн Фоглер, Элисон Судол, Колин Фаррелл, Кармен Эджого, Эзра Миллер, Саманта Мортон, Рон Перлман, Джон Войт, Доминик Типпер

О фильме:1926 год. Зоолог-волшебник Ньют Саламандер нелегально вывозит в чемодане редких магических зверей, чтобы переселить оставшихся особей в более подходящую среду обитания и, тем самым, сохранить их как вид. Но при очередном прохождении нью-йоркской таможни что-то идет не так и несколько опасных существ оказываются на воле. Саламандеру необходимо как можно быстрее упаковать разбежавшийся зверинец обратно в чемодан, ведь на его поиски уже выдвинулись местные волшебные власти. Дело осложняется назревающим конфликтом между магами и не-магами (американское название маглов), за которым стоит тайное общество анархистов-радикалов "Новый Салем". Его адепты вынашивают жуткий план по честному отъему волшебных палочек во всем мире.

Страна: Великобритания, СШАСтудия: Cinesite, Double Negative, FramestoreПродолжительность: 02:12:53Перевод: Дублированный | Лицензия

ФайлКачество: BDRip 720pВидео: MPEG-4 AVC, 1280x534, 5052 Kbit/s, 23.976 fpsЗвук: Аудио #01: 48 kHz, AC3, 5.1, 448 Kbps | Дублированный |Аудио #02: 48 kHz, AC3, 5.1, 640 kbps | Оригинал |Субтитры: Русские (forced, full), английские

MI

General Unique ID : 187502013197586683234429258843329711867 (0x8D0F92FDC9F9A1C7B09839C711A4CEFB) Complete name : G:VideoFantastic.Beasts.2016.D.BDRip.720p.ExKinoRay.mkv Format : Matroska Format version : Version 4 / Version 2 File size : 5.70 GiB Duration : 2 h 12 min Overall bit rate : 6 143 kb/s Encoded date : UTC 2017-02-25 16:14:11 Writing application : mkvmerge v8.3.0 ('Over the Horizon') 64bit Writing library : libebml v1.3.1 + libmatroska v1.4.2 Cover : Yes Attachments : cover.jpg

Video ID : 1 Format : AVC Format/Info : Advanced Video Codec Format profile : [email protected] Format settings, CABAC : Yes Format settings, ReFrames : 12 frames Codec ID : V_MPEG4/ISO/AVC Duration : 2 h 12 min Bit rate : 5 052 kb/s Width : 1 280 pixels Height : 534 pixels Display aspect ratio : 2.40:1 Frame rate mode : Constant Frame rate : 23.976 (24000/1001) FPS Color space : YUV Chroma subsampling : 4:2:0 Bit depth : 8 bits Scan type : Progressive Bits/(Pixel*Frame) : 0.308 Stream size : 4.69 GiB (82%) Writing library : x264 core 148 r2744kMod b97ae06 Encoding settings : cabac=1 / ref=12 / deblock=1:-3:-3 / analyse=0x3:0x133 / me=umh / subme=10 / psy=1 / fade_compensate=0.00 / psy_rd=1.00:0.00 / mixed_ref=1 / me_range=24 / chroma_me=1 / trellis=2 / 8x8dct=1 / cqm=0 / deadzone=21,11 / fast_pskip=0 / chroma_qp_offset=-2 / threads=56 / lookahead_threads=4 / sliced_threads=0 / nr=0 / decimate=0 / interlaced=0 / bluray_compat=0 / constrained_intra=0 / bframes=8 / b_pyramid=2 / b_adapt=2 / b_bias=0 / direct=3 / weightb=1 / open_gop=0 / weightp=2 / keyint=250 / keyint_min=23 / scenecut=40 / intra_refresh=0 / rc_lookahead=60 / rc=crf / mbtree=0 / crf=16.5000 / qcomp=0.60 / qpmin=0 / qpmax=69 / qpstep=4 / vbv_maxrate=62500 / vbv_bufsize=78125 / crf_max=0.0 / nal_hrd=none / filler=0 / ip_ratio=1.30 / pb_ratio=1.20 / aq=3:0.77 Language : English Default : Yes Forced : No Color range : Limited Matrix coefficients : BT.709

Audio #1 ID : 2 Format : AC-3 Format/Info : Audio Coding 3 Mode extension : CM (complete main) Format settings, Endianness : Big Codec ID : A_AC3 Duration : 2 h 12 min Bit rate mode : Constant Bit rate : 448 kb/s Channel(s) : 6 channels Channel positions : Front: L C R, Side: L R, LFE Sampling rate : 48.0 kHz Frame rate : 31.250 FPS (1536 spf) Bit depth : 16 bits Compression mode : Lossy Stream size : 426 MiB (7%) Title : Dub [License] Language : Russian Default : Yes Forced : No

Audio #2 ID : 3 Format : AC-3 Format/Info : Audio Coding 3 Mode extension : CM (complete main) Format settings, Endianness : Big Codec ID : A_AC3 Duration : 2 h 12 min Bit rate mode : Constant Bit rate : 640 kb/s Channel(s) : 6 channels Channel positions : Front: L C R, Side: L R, LFE Sampling rate : 48.0 kHz Frame rate : 31.250 FPS (1536 spf) Bit depth : 16 bits Compression mode : Lossy Stream size : 608 MiB (10%) Title : Original Language : English Default : No Forced : No

Text #1 ID : 4 Format : UTF-8 Codec ID : S_TEXT/UTF8 Codec ID/Info : UTF-8 Plain Text Duration : 2 h 11 min Bit rate : 1 b/s Count of elements : 41 Stream size : 1.82 KiB (0%) Title : Forced Language : Russian Default : Yes Forced : No

Text #2 ID : 5 Format : UTF-8 Codec ID : S_TEXT/UTF8 Codec ID/Info : UTF-8 Plain Text Duration : 2 h 12 min Bit rate : 54 b/s Count of elements : 1172 Stream size : 53.2 KiB (0%) Title : Full Language : Russian Default : No Forced : No

Text #3 ID : 6 Format : UTF-8 Codec ID : S_TEXT/UTF8 Codec ID/Info : UTF-8 Plain Text Duration : 2 h 10 min Bit rate : 38 b/s Count of elements : 1304 Stream size : 37.1 KiB (0%) Title : Full Language : English Default : No Forced : No

Text #4 ID : 7 Format : UTF-8 Codec ID : S_TEXT/UTF8 Codec ID/Info : UTF-8 Plain Text Duration : 2 h 11 min Bit rate : 44 b/s Count of elements : 1599 Stream size : 43.3 KiB (0%) Title : SDH Language : English Default : No Forced : No

Menu 00:00:00.000 : :Chapter 1 00:08:40.394 : :Chapter 2 00:18:55.843 : :Chapter 3 00:28:23.785 : :Chapter 4 00:38:34.312 : :Chapter 5 00:48:08.719 : :Chapter 6 00:58:19.370 : :Chapter 7 01:09:14.817 : :Chapter 8 01:17:26.516 : :Chapter 9 01:29:33.785 : :Chapter 10 01:38:02.209 : :Chapter 11 01:50:27.996 : :Chapter 12 01:59:04.595 : :Chapter 13 02:04:12.069 : :Chapter 14

Релиз от: Автор релиза:

krutor.org

Скачать торрент Фантастические твари и где они обитают / Fantastic Beasts and Where to Find Them (2016) TS-AVC

Информация о фильмеНазвание: Фантастические твари и где они обитаютОригинальное название: Fantastic Beasts and Where to Find ThemГод выпуска: 2016Жанр: Фэнтези, приключения, семейный, экранизацияРежиссер: Дэвид ЙейтсВ ролях: Эдди Редмэйн, Кэтрин Уотерстон, Дэн Фоглер, Элисон Судол, Колин Фаррелл, Кармен Эджого, Эзра Миллер, Саманта Мортон, Рон Перлман, Джон Войт

О фильме: 1926 год. Зоолог-волшебник Ньют Саламандер нелегально вывозит в чемодане редких магических зверей, чтобы переселить оставшихся особей в более подходящую среду обитания и, тем самым, сохранить их как вид. Но при очередном прохождении нью-йоркской таможни что-то идет не так и несколько опасных существ оказываются на воле. Саламандеру необходимо как можно быстрее упаковать разбежавшийся зверинец обратно в чемодан, ведь на его поиски уже выдвинулись местные волшебные власти. Дело осложняется назревающим конфликтом между магами и не-магами (американское название маглов), за которым стоит тайное общество анархистов-радикалов "Новый Салем". Его адепты вынашивают жуткий план по честному отъему волшебных палочек во всем мире.

Страна: Великобритания, СШАСтудия: Cinesite, Double Negative, FramestoreПродолжительность: 02:04:00Перевод: Дублированный [Звук с CAMRip]

ФайлКодек: MPEG-4 AVCКачество: TS \(AVC\)Видео: 2006 Кбит/с, 720x320Звук: Русский (AC3, 2 ch, 384 Кбит/с), английский (MP3, 2 ch, 192 Кбит/с)

Без рекламы.

Семпл

Скрытый текст

General Unique ID : 246035860638675269548919753266507025825 (0xB918C87BD816C2A1A085C93CFE580DA1) Complete name : D:Fantasticheskie.Tvars.2016.HD.TS.x264.AC3.mkv Format : Matroska Format version : Version 4 / Version 2 File size : 2.24 GiB Duration : 2 h 4 min Overall bit rate mode : Variable Overall bit rate : 2 585 kb/s Encoded date : UTC 2016-11-20 21:12:51 Writing application : mkvmerge v9.5.0 ('Quiet Fire') 64bit Writing library : libebml v1.3.4 + libmatroska v1.4.5

Video ID : 1 Format : AVC Format/Info : Advanced Video Codec Format profile : [email protected] Format settings, CABAC : Yes Format settings, ReFrames : 4 frames Codec ID : V_MPEG4/ISO/AVC Duration : 2 h 4 min Bit rate mode : Variable Bit rate : 2 006 kb/s Maximum bit rate : 62.5 Mb/s Width : 720 pixels Height : 320 pixels Display aspect ratio : 2.25:1 Frame rate mode : Constant Frame rate : 30.000 FPS Color space : YUV Chroma subsampling : 4:2:0 Bit depth : 8 bits Scan type : Progressive Bits/(Pixel*Frame) : 0.290 Stream size : 1.74 GiB (78%) Default : Yes Forced : No Color range : Full Color primaries : BT.709 Transfer characteristics : BT.709 Matrix coefficients : BT.709

Audio #1 ID : 2 Format : AC-3 Format/Info : Audio Coding 3 Mode extension : CM (complete main) Format settings, Endianness : Big Codec ID : A_AC3 Duration : 2 h 3 min Bit rate mode : Constant Bit rate : 384 kb/s Channel(s) : 2 channels Channel positions : Front: L R Sampling rate : 48.0 kHz Frame rate : 31.250 FPS (1536 spf) Bit depth : 16 bits Compression mode : Lossy Stream size : 341 MiB (15%) Language : Russian Default : Yes Forced : No

Audio #2 ID : 3 Format : MPEG Audio Format version : Version 1 Format profile : Layer 3 Codec ID : A_MPEG/L3 Codec ID/Hint : MP3 Duration : 2 h 3 min Bit rate mode : Constant Bit rate : 192 kb/s Channel(s) : 2 channels Sampling rate : 44.1 kHz Frame rate : 38.281 FPS (1152 spf) Compression mode : Lossy Delay relative to video : 101 ms Stream size : 170 MiB (7%) Writing library : LAME1qc kI¶ЬЊчЁ / ( Language : English Default : No Forced : No

krutor.org

Скачать торрент Фантастические твари и где они обитают / Fantastic Beasts and Where to Find Them (2016) BDRip 1080p от New-Team & qqss44

x264 [info]: frame I:1461 Avg QP:14.40 size:226476 x264 [info]: frame P:43588 Avg QP:17.45 size: 76536 x264 [info]: frame B:146095 Avg QP:19.22 size: 27087

Общее Уникальный идентификатор : 183355263101705565423571107945056910177 (0x89F0F06D3D3A5CD88F6CB59A07E13B61) Формат : Matroska Версия формата : Version 2 Размер файла : 7,93 Гбайт Продолжительность : 2 ч. 12 м. Общий поток : 8549 Кбит/сек Название фильма : Fantastic.Beasts.and.Where.to.Find.Them.2016.BDRip.1080p.(qqss44) Дата кодирования : UTC 2017-02-26 14:34:35 Программа кодирования : mkvmerge v5.8.0 ('No Sleep / Pillow') built on Sep 2 2012 15:37:04 Библиотека кодирования : libebml v1.2.3 + libmatroska v1.3.0

Видео Идентификатор : 1 Формат : AVC Формат/Информация : Advanced Video Codec Профиль формата : [email protected] Параметр CABAC формата : Да Параметр ReFrames формата : 5 кадров Идентификатор кодека : V_MPEG4/ISO/AVC Продолжительность : 2 ч. 12 м. Битрейт : 7669 Кбит/сек Ширина : 1920 пикселей Высота : 800 пикселей Соотношение сторон : 2,40:1 Режим частоты кадров : Постоянный Частота кадров : 23,976 (24000/1001) кадра/сек Цветовое пространство : YUV Субдискретизация насыщенности : 4:2:0 Битовая глубина : 8 бит Тип развёртки : Прогрессивная Бит/(Пиксели*Кадры) : 0.208 Размер потока : 6,94 Гбайт (88%) Заголовок : Fantastic.Beasts.and.Where.to.Find.Them.2016.BDRip.1080p.(qqss44) Библиотека кодирования : x264 core 148 r2744kMod b97ae06 Настройки программы : cabac=1 / ref=5 / deblock=1:-3:-3 / analyse=0x3:0x133 / me=umh / subme=11 / psy=1 / fade_compensate=0.00 / psy_rd=1.00:0.00 / mixed_ref=1 / me_range=32 / chroma_me=1 / trellis=2 / 8x8dct=1 / cqm=0 / deadzone=21,11 / fast_pskip=0 / chroma_qp_offset=-2 / threads=12 / lookahead_threads=3 / sliced_threads=0 / nr=0 / decimate=0 / interlaced=0 / bluray_compat=0 / constrained_intra=0 / bframes=10 / b_pyramid=2 / b_adapt=2 / b_bias=0 / direct=3 / weightb=1 / open_gop=0 / weightp=2 / keyint=240 / keyint_min=23 / scenecut=40 / intra_refresh=0 / rc=2pass / mbtree=0 / bitrate=7669 / ratetol=1.0 / qcomp=0.70 / qpmin=0 / qpmax=69 / qpstep=4 / cplxblur=20.0 / qblur=0.5 / ip_ratio=1.40 / pb_ratio=1.30 / aq=3:0.70 Язык : English Default : Да Forced : Нет

Аудио #1 Идентификатор : 2 Формат : AC-3 Формат/Информация : Audio Coding 3 Расширение режима : CM (complete main) Параметр Endianness формата : Big Идентификатор кодека : A_AC3 Продолжительность : 2 ч. 12 м. Вид битрейта : Постоянный Битрейт : 448 Кбит/сек Каналы : 6 каналов Расположение каналов : Front: L C R, Side: L R, LFE Частота : 48,0 КГц Частота кадров : 31,250 кадров/сек (1536 spf) Метод сжатия : С потерями Размер потока : 426 Мбайт (5%) Заголовок : DUB | DD5.1 @ 448 kbps Язык : Russian Default : Да Forced : Нет

Аудио #2 Идентификатор : 3 Формат : AC-3 Формат/Информация : Audio Coding 3 Расширение режима : CM (complete main) Параметр Endianness формата : Big Идентификатор кодека : A_AC3 Продолжительность : 2 ч. 12 м. Вид битрейта : Постоянный Битрейт : 448 Кбит/сек Каналы : 6 каналов Расположение каналов : Front: L C R, Side: L R, LFE Частота : 48,0 КГц Частота кадров : 31,250 кадров/сек (1536 spf) Метод сжатия : С потерями Размер потока : 426 Мбайт (5%) Заголовок : Original | DD5.1 @ 448 kbps Язык : English Default : Нет Forced : Нет

Текст #1 Идентификатор : 4 Формат : UTF-8 Идентификатор кодека : S_TEXT/UTF8 Идентификатор кодека/Информация : UTF-8 Plain Text Заголовок : FORCED Язык : Russian Default : Да Forced : Нет

Текст #2 Идентификатор : 5 Формат : UTF-8 Идентификатор кодека : S_TEXT/UTF8 Идентификатор кодека/Информация : UTF-8 Plain Text Заголовок : FULL Язык : Russian Default : Нет Forced : Нет

Текст #3 Идентификатор : 6 Формат : UTF-8 Идентификатор кодека : S_TEXT/UTF8 Идентификатор кодека/Информация : UTF-8 Plain Text Заголовок : FULL Язык : English Default : Нет Forced : Нет

Меню 00:00:00.000 : en:00:00:00.000 00:08:40.270 : en:00:08:40.270 00:18:55.718 : en:00:18:55.718 00:28:23.660 : en:00:28:23.660 00:38:34.187 : en:00:38:34.187 00:48:08.594 : en:00:48:08.594 00:58:19.246 : en:00:58:19.246 01:09:14.692 : en:01:09:14.692 01:17:26.392 : en:01:17:26.392 01:29:33.660 : en:01:29:33.660 01:38:02.085 : en:01:38:02.085 01:50:27.871 : en:01:50:27.871 01:59:04.471 : en:01:59:04.471 02:04:11.944 : en:02:04:11.944

krutor.org

(2016)

 

:

:

| ? » » 2016 » (2016)
(4 ) (2016) (7 ) (2016) (12 ) (2016) 3 / Mafia III - Digital Deluxe Edition [v 1.090.0.1 + 6 DLC] (2016) PC | RePack xatabSid Meier's Civilization VI: Digital Deluxe [v 1.0.0.194 + DLC's] (2016) PC | RePack xatab

torrent-besplatno.net


Смотрите также